Witamy Guest (Zaloguj) Strona Główna Kontakt Aktywacja/Wsparcie Regulamin
User: Hasło:
Stwórz konto Odzyskiwanie hasła

Kategorie
Filmy :
 » DVD-R1908  
 » VCD/SVCD76  
 » BluRay/x2645205  
 » DivX/XviD64001  
 » Filmy ENG524  
 » RMVB6127  
 » HD0  
 » 3D16  
Seriale :
 » Seriale Polskie2702  
 » Seriale Zagraniczne16915  
Dla Dzieci :
 » Bajki Pl/Eng1195  
Anime :
 » Anime Pl139  
 » Anime1265  
Muzyka :
 » Muzyka Polska/Zagraniczna17328  
 » Soundtracki299  
 » Teledyski/Koncerty1989  
Gry :
 » Gry PC11274  
 » Gry PS2/PS3/PSP1157  
 » Gry Xbox1154  
 » Gry - Inne Konsole456  
GSM/PDA :
 » Tapety GSM/PDA103  
 » Programy GSM/PDA383  
 » Filmy GSM/PDA122  
 » Dzwonki GSM/PDA110  
 » Gry GSM/PDA238  
Ksiazki/Czasopisma :
 » E-Booki9501  
 » Audio-Booki794  
 » Czasopisma1058  
 » Komiksy834  
Programy :
 » Windows11178  
 » Linux475  
 » Macintosh97  
Inne :
 » Tapety2394  
 » Śmieszne80  
 » Sport1175  
 » Pozostale246  
Erotyka :
 » Czasopisma125  
 » Zdjęcia 1531  
 » Filmy45703  
 » Gry 68  
 » Hentai+1853  

Red Hill *2010* [BDRip XviD] [Lektor PL]

Kategoria: DivX/XviD
Wystawil: 
Data: 21/08/2016
Rozmiar: 700.22 MB
Seedow: 1
Leecherow: 0

Uaktualnij


Pobierz Torrent
Produkcja:Australia
Gatunek:Western
Reżyseria: Patrick Hughes
Scenariusz: Patrick Hughes
Premiera:14 lutego 2010 (świat)
Czas trwania: 1:37:08

OPIS:


Osadzony we współczesnych realiach western opowiada historię Shane'a Coopera, młodego policjanta, który wraz z żoną, będącą w ciąży, przeprowadził się do małego miasteczka Red Hill. W momencie kiedy najnowsze wiadomości przekazują informację o zbiegłym z więzienia mordercy, szukającym zemsty, życie Coopera staje się koszmarem.

OBSADA:

Ryan Kwanten
Steve Bisley
Claire van der Boom
Jennifer Jarman-Walker
Kevin Harrington
Tommy Lewis
Richard E. Young
Christopher Davis

DANE TECH:

Format                      : AVI
Format/Info                 : Audio Video Interleave
File size                   : 700 MiB
Duration                    : 1 h 36 min
Overall bit rate mode       : Variable
Overall bit rate            : 1 014 kb/s
Writing application         : VirtualDubMod 1.5.10.2 (build 2540/release)
Writing library             : VirtualDubMod build 2540/release

Video
ID                          : 0
Format                      : MPEG-4 Visual
Format profile              : Advanced Simple@L5
Format settings, BVOP       : 1
Format settings, QPel       : No
Format settings, GMC        : No warppoints
Format settings, Matrix     : Default (H.263)
Muxing mode                 : Packed bitstream
Codec ID                    : XVID
Codec ID/Hint               : XviD
Duration                    : 1 h 36 min
Bit rate                    : 847 kb/s
Width                       : 624 pixels
Height                      : 256 pixels
Display aspect ratio        : 2.40:1
Frame rate                  : 23.976 (23976/1000) FPS
Color space                 : YUV
Chroma subsampling          : 4:2:0
Bit depth                   : 8 bits
Scan type                   : Progressive
Compression mode            : Lossy
Bits/(Pixel*Frame)          : 0.221
Stream size                 : 585 MiB (84%)
Writing library             : XviD 1.3.0.dev55

Audio
ID                          : 1
Format                      : MPEG Audio
Format version              : Version 1
Format profile              : Layer 3
Mode                        : Joint stereo
Mode extension              : MS Stereo
Codec ID                    : 55
Codec ID/Hint               : MP3
Duration                    : 1 h 36 min
Bit rate mode               : Variable
Bit rate                    : 150 kb/s
Channel(s)                  : 2 channels
Sampling rate               : 48.0 kHz
Compression mode            : Lossy
Delay relative to video     : 408 ms
Stream size                 : 106 MiB (15%)
Alignment                   : Split accross interleaves
Interleave, duration        : 24  ms (0.58 video frame)
Interleave, preload duratio : 1120  ms
Writing library             : LAME3.90.
Encoding settings           : -m j -V 4 -q 2 -lowpass 18 --abr 150
Szczegoly torrenta
Info Hash
f7e40732d25ecd191870e0dd045e39eb6215b0d1
Tracker
udp://9.rarbg.me:2710/announce [EXTERNAL]
Uaktualnienie
25/05/2017 02:56:07 (Jezeli nie widac seeda kliknij na [uaktualnij] by odswiezyc statystyki).
Pokaz/Ukryj Pliki:
1 file
Komentarze


Brak komentarzy...


Wstecz